+3271.44
1757 читателей, 2250 постов

Все официальные комиксы MLP - ЧИТАТЬ и СКАЧАТЬ БЕСПЛАТНО БЕЗ РЕГИСТРАЦИИ (НЕ ШУЧУ) И СМС 2021


Заботимся о ваших глазках, поэтому напоминаем про тёмную тему
Выпуск "Friendship is Magic", который выпускался с 2012-го года, завершён. Самое время потерять пару вечеров за чтением?
В тему: My Little Pony: Новое поколение (не старое) — СКАЧАТЬ и СМОТРЕТЬ БЕСПЛАТНО БЕЗ РЕГИСТРАЦИИ (шучу) И СМС 2021

Читать дальше →

Теги:

  • В избранное
    22
  • 19

Санни с повышенной пушистостью

Потихоньку My Little Pony: A New Generation обживается в фандоме, при этом вылезают и новые подробности относительно того, как делалась вторая полнометражка. Это касается и того, кто именно делал модели персонажей. Для этого наняли правильного специалиста — Джонатана Каталана Наваретте. Моделлер из Валенсии уже отметился в нескольких анимационных лентах. Например, именно он стоит за персонажами из Angry Birds: The Movie.
На своей официальной странице он пока ничего по полнометражке не выставлял, зато начал сливать рендеры в своём Инстаграме. Уже выложены Иззи, Пипп и Зипп, и вот теперь дошла очередь и до Санни.

Продолжение →

[G5] Первые концепты сериала по пятому поколению и возможный выход сразу четырёх специальных эпизодов


Художник по имени Эдвард Дэвис (Edward Davis) разместил у себя на сайте (недоступен в России) портфолио с концепт-артами из различных сериалов, включая тот, что носит заголовок My Little Pony: Netflix series 2022. На них можно увидеть кобылку, наблюдающую за божьей коровкой, и Хитча, в костюме известного всем, кто смотрел второй сезон MLP:FiM, супергероя Mare Do Well. Также там можно найти 2 секунды аниматика с ним. Хотя сам сериал должен выйти только осенью 2022 года, вероятно, уже скоро мы получим о нём ещё больше подробностей.
UPD: Добавлена ещё пара концепт-артов.

Читать дальше →

Теги: , ,

  • В избранное
    2
  • 39

[MLP:TheMovie2] Концепт-арты от создателей полнометражки


Одна из художниц, работавших над новой полнометражкой, Lea Dabssi, известная под псевдонимом Imalou (страница на DA) продолжает делиться своими концепт-артами, которые она рисовала во время работы над мультфильмом. Ознакомиться с ними можно под cut'ом.
UPD: Добавлены концепт-арты художника Alvaro Ramirez'а, отвечавшего за дизайн локаций и общую художественную составляющую полнометражки.
UPD2: Добавлены работы художницы Amandine Aramini с дизайном локаций и предметов интерьера.
UPD3: Добавлено ещё больше концепт-артов от различных авторов.

Осторожно, большое количество изображений внутри

[Сезон 10][Комиксы IDW] Превью комикса My Little Pony: Friendship Is Magic #102 (Сезон 10 Эпизод 14).



Доброго времени суток, уважаемые броняши! Вчера (30 сентября), появились первые три страницы грядущего 102-го выпуска комиксов из серии Friendship Is Magic или 14-го эпизода 10 сезона (окончание истории про путешествие Рэйнбоу Дэш, Спитфайр, Лиры, Свити Дропс (Бон Бон) и капитана Гарпии на родину капитана Гарпии; окончание арки про загадку «Рыцарей Гармонии»). Этот выпуск выходит примерно 13 октября 2021 года и станет последним в серии Friendship Is Magic. Они будут под катом.


Тык, копытцем! →

Элементы Гармонии для новой пятёрки поней.

Я считаю, что эта информация заслуживает поста, потому что это весьма интересно.

Спрячу под катом на всякий случай, информация взята с сайта Equestria Daily.

Читать дальше →

Поняшки в 4k

+215
в блоге Срочно в номер

Пегасы на своих крыльях принесли нам торрент ссылку на 4k приключения наших любимых героев.
Да это апскейл 1080p версии, да сделанная нейросетями, и да сайт магиядружбы.рф уже опубликовал нашу версию, но у них то первый пробный апсекейл, с большим количеством артефактов и других косяков.

Качаем друзья мои, и остаемся на раздаче.
yadi.sk/d/LCVGwLE4cTn4NA

Аудиодорожки в двух вариантах 2ух и 6ти канальный:
Английский
Русский
Украинский
Немецкий
Французский
А также соответствующие им субтитры.

Подробная информация по файлуGeneral
Format: Matroska
Format version: Version 4
File size: 9.53 GiB
Duration: 1 h 31 min
Overall bit rate: 14.9 Mb/s
Encoded date: UTC 2021-09-26 16:50:34
Writing application: mkvmerge v61.0.0 ('So') 64-bit
Writing library: libebml v1.4.2 + libmatroska v1.6.4 / Lavf58.18.101

Video
ID: 1
Format: HEVC
Format/Info: High Efficiency Video Coding
Format profile: [email protected]@Main
Codec ID: V_MPEGH/ISO/HEVC
Duration: 1 h 31 min
Bit rate: 12.0 Mb/s
Width: 3 840 pixels
Height: 1 608 pixels
Display aspect ratio: 2.40:1
Frame rate mode: Constant
Frame rate: 24.000 FPS
Color space: YUV
Chroma subsampling: 4:2:0
Bit depth: 8 bits
Bits/(Pixel*Frame): 0.081
Stream size: 7.67 GiB (80%)
Language: English
Default: Yes
Forced: No
Color range: Limited
Transfer characteristics: BT.709
Matrix coefficients: BT.709

Audio #1
ID: 2
Format: AAC LC SBR
Format/Info: Advanced Audio Codec Low Complexity with Spectral Band Replication
Commercial name: HE-AAC
Format settings: Explicit
Codec ID: A_AAC-2
Duration: 1 h 31 min
Bit rate: 96.0 kb/s
Channel(s): 2 channels
Channel layout: L R
Sampling rate: 48.0 kHz
Frame rate: 23.438 FPS (2048 SPF)
Compression mode: Lossy
Stream size: 62.8 MiB (1%)
Language: English
Default: No
Forced: No

Audio #2
ID: 3
Format: E-AC-3
Format/Info: Enhanced AC-3
Commercial name: Dolby Digital Plus
Codec ID: A_EAC3
Duration: 1 h 31 min
Bit rate mode: Constant
Bit rate: 640 kb/s
Channel(s): 6 channels
Channel layout: L R C LFE Ls Rs
Sampling rate: 48.0 kHz
Frame rate: 31.250 FPS (1536 SPF)
Bit depth: 32 bits
Compression mode: Lossy
Stream size: 419 MiB (4%)
Language: English
Service kind: Complete Main
Default: Yes
Forced: No

Audio #3
ID: 4
Format: AAC LC SBR
Format/Info: Advanced Audio Codec Low Complexity with Spectral Band Replication
Commercial name: HE-AAC
Format settings: Explicit
Codec ID: A_AAC-2
Duration: 1 h 31 min
Bit rate: 96.0 kb/s
Channel(s): 2 channels
Channel layout: L R
Sampling rate: 48.0 kHz
Frame rate: 23.438 FPS (2048 SPF)
Compression mode: Lossy
Stream size: 62.8 MiB (1%)
Language: Russian
Default: No
Forced: No

Audio #4
ID: 5
Format: E-AC-3
Format/Info: Enhanced AC-3
Commercial name: Dolby Digital Plus
Codec ID: A_EAC3
Duration: 1 h 31 min
Bit rate mode: Constant
Bit rate: 192 kb/s
Channel(s): 6 channels
Channel layout: L R C LFE Ls Rs
Sampling rate: 48.0 kHz
Frame rate: 31.250 FPS (1536 SPF)
Bit depth: 32 bits
Compression mode: Lossy
Stream size: 126 MiB (1%)
Language: Russian
Service kind: Complete Main
Default: No
Forced: No

Audio #5
ID: 6
Format: AAC LC SBR
Format/Info: Advanced Audio Codec Low Complexity with Spectral Band Replication
Commercial name: HE-AAC
Format settings: Explicit
Codec ID: A_AAC-2
Duration: 1 h 31 min
Bit rate: 96.0 kb/s
Channel(s): 2 channels
Channel layout: L R
Sampling rate: 48.0 kHz
Frame rate: 23.438 FPS (2048 SPF)
Compression mode: Lossy
Stream size: 62.8 MiB (1%)
Language: German
Default: No
Forced: No

Audio #6
ID: 7
Format: E-AC-3
Format/Info: Enhanced AC-3
Commercial name: Dolby Digital Plus
Codec ID: A_EAC3
Duration: 1 h 31 min
Bit rate mode: Constant
Bit rate: 640 kb/s
Channel(s): 6 channels
Channel layout: L R C LFE Ls Rs
Sampling rate: 48.0 kHz
Frame rate: 31.250 FPS (1536 SPF)
Bit depth: 32 bits
Compression mode: Lossy
Stream size: 419 MiB (4%)
Language: German
Service kind: Complete Main
Default: No
Forced: No

Audio #7
ID: 8
Format: AAC LC SBR
Format/Info: Advanced Audio Codec Low Complexity with Spectral Band Replication
Commercial name: HE-AAC
Format settings: Explicit
Codec ID: A_AAC-2
Duration: 1 h 31 min
Bit rate: 96.0 kb/s
Channel(s): 2 channels
Channel layout: L R
Sampling rate: 48.0 kHz
Frame rate: 23.438 FPS (2048 SPF)
Compression mode: Lossy
Stream size: 62.8 MiB (1%)
Language: French
Default: No
Forced: No

Audio #8
ID: 9
Format: E-AC-3
Format/Info: Enhanced AC-3
Commercial name: Dolby Digital Plus
Codec ID: A_EAC3
Duration: 1 h 31 min
Bit rate mode: Constant
Bit rate: 640 kb/s
Channel(s): 6 channels
Channel layout: L R C LFE Ls Rs
Sampling rate: 48.0 kHz
Frame rate: 31.250 FPS (1536 SPF)
Bit depth: 32 bits
Compression mode: Lossy
Stream size: 419 MiB (4%)
Language: French
Service kind: Complete Main
Default: No
Forced: No

Audio #9
ID: 10
Format: AAC LC SBR
Format/Info: Advanced Audio Codec Low Complexity with Spectral Band Replication
Commercial name: HE-AAC
Format settings: Explicit
Codec ID: A_AAC-2
Duration: 1 h 31 min
Bit rate: 96.0 kb/s
Channel(s): 2 channels
Channel layout: L R
Sampling rate: 48.0 kHz
Frame rate: 23.438 FPS (2048 SPF)
Compression mode: Lossy
Stream size: 62.8 MiB (1%)
Language: Ukrainian
Default: No
Forced: No

Audio #10
ID: 11
Format: E-AC-3
Format/Info: Enhanced AC-3
Commercial name: Dolby Digital Plus
Codec ID: A_EAC3
Duration: 1 h 31 min
Bit rate mode: Constant
Bit rate: 192 kb/s
Channel(s): 6 channels
Channel layout: L R C LFE Ls Rs
Sampling rate: 48.0 kHz
Frame rate: 31.250 FPS (1536 SPF)
Bit depth: 32 bits
Compression mode: Lossy
Stream size: 126 MiB (1%)
Language: Ukrainian
Service kind: Complete Main
Default: No
Forced: No

Audio #11
ID: 12
Format: AAC LC SBR
Format/Info: Advanced Audio Codec Low Complexity with Spectral Band Replication
Commercial name: HE-AAC
Format settings: Explicit
Codec ID: A_AAC-2
Duration: 1 h 31 min
Bit rate: 128 kb/s
Channel(s): 2 channels
Channel layout: L R
Sampling rate: 48.0 kHz
Frame rate: 23.438 FPS (2048 SPF)
Compression mode: Lossy
Stream size: 83.8 MiB (1%)
Title: English — AD
Language: English
Default: No
Forced: No

Text #1
ID: 13
Format: ASS
Codec ID: S_TEXT/ASS
Codec ID/Info: Advanced Sub Station Alpha
Duration: 1 h 27 min
Bit rate: 135 b/s
Count of elements: 1722
Compression mode: Lossless
Stream size: 86.7 KiB (0%)
Language: English
Default: No
Forced: No

Text #2
ID: 14
Format: ASS
Codec ID: S_TEXT/ASS
Codec ID/Info: Advanced Sub Station Alpha
Duration: 1 h 29 min
Bit rate: 130 b/s
Count of elements: 1382
Compression mode: Lossless
Stream size: 85.4 KiB (0%)
Language: Russian
Default: No
Forced: No

Text #3
ID: 15
Format: ASS
Codec ID: S_TEXT/ASS
Codec ID/Info: Advanced Sub Station Alpha
Duration: 1 h 9 min
Bit rate: 2 b/s
Count of elements: 20
Compression mode: Lossless
Stream size: 1.22 KiB (0%)
Title: Forced
Language: Russian
Default: No
Forced: No

Text #4
ID: 16
Format: ASS
Codec ID: S_TEXT/ASS
Codec ID/Info: Advanced Sub Station Alpha
Duration: 1 h 29 min
Bit rate: 96 b/s
Count of elements: 1182
Compression mode: Lossless
Stream size: 63.1 KiB (0%)
Language: German
Default: No
Forced: No

Text #5
ID: 17
Format: ASS
Codec ID: S_TEXT/ASS
Codec ID/Info: Advanced Sub Station Alpha
Duration: 15 min 25 s
Bit rate: 0 b/s
Count of elements: 2
Compression mode: Lossless
Stream size: 105 Bytes (0%)
Title: Forced
Language: German
Default: No
Forced: No

Text #6
ID: 18
Format: ASS
Codec ID: S_TEXT/ASS
Codec ID/Info: Advanced Sub Station Alpha
Duration: 1 h 29 min
Bit rate: 97 b/s
Count of elements: 1233
Compression mode: Lossless
Stream size: 64.3 KiB (0%)
Language: French
Default: No
Forced: No

Text #7
ID: 19
Format: ASS
Codec ID: S_TEXT/ASS
Codec ID/Info: Advanced Sub Station Alpha
Duration: 1 h 20 min
Bit rate: 0 b/s
Count of elements: 10
Compression mode: Lossless
Stream size: 448 Bytes (0%)
Title: Forced
Language: French
Default: No
Forced: No

Text #8
ID: 20
Format: ASS
Codec ID: S_TEXT/ASS
Codec ID/Info: Advanced Sub Station Alpha
Duration: 1 h 29 min
Bit rate: 127 b/s
Count of elements: 1394
Compression mode: Lossless
Stream size: 84.0 KiB (0%)
Language: Ukrainian
Default: No
Forced: No

Text #9
ID: 21
Format: ASS
Codec ID: S_TEXT/ASS
Codec ID/Info: Advanced Sub Station Alpha
Duration: 15 min 24 s
Bit rate: 1 b/s
Count of elements: 2
Compression mode: Lossless
Stream size: 158 Bytes (0%)
Title: Forced
Language: Ukrainian
Default: No
Forced: No


Всем Санни ♥ Хитчь.

Теги:

  • В избранное
    5
  • 95

3D модель Пипп

+183
в блоге Срочно в номер
Наши пегасы не покладая крыльев доносят последние новости со всего интернета.
Несколько часов назад в цепкие лапы нашего сообщества попали файлы 3D модели Пипп, а это значит что не за горами фанатские 3D анимации.


Читать дальше →

Теги:

  • В избранное
    4
  • 55

Немного закадра с озвучки MLP: A New Generation

Netflix выложил на своём официальном YouTube-канале короткую видео-нарезку некоторых запоминающихся моментов с озвучки Основной Пятёрки из My Little Pony: A New Generation. Тут, конечно, не всё состоит из забавных косяков и гэгов, но, тем не менее, интересно посмотреть на часть процесса работы над столь долгожданным фильмом.



К слову, несколько неожиданно, что озвучание происходило в ассоциирующихся с персонажами нарядах, в которых основной актёрский состав впервые предстал вживую ещё в промо — видимо, это для того, чтобы лучше вжиться в роль?

Источник