MLP :: Сериал :: Сезон 09 :: 1080p & 720p :: Большая

Внимание!
14.04.2019 в 23:50 раздача создана
Добавлены первые три серии, русские и английские субтитры к ней.



1ая-3ья серии
Да, «два-в-одном», ибо мне лень делать отдельно посты для 1080 и 720. Да и так удобнее с комментариями, как по мне





Перевод: Субтитры

Описание: Девятый, финальный, сезон мультсериала Мой Маленький Пони.

Список серий:

01 — The Beginning of the End — Part 1
02 — The Beginning of the End — Part 2
03 — Uprooted

планируемые к показу серии и дата премьерного эфира…сами нагуглите. Раз в неделю по субботам же в 18:30 мск

Доп. информация:Внимание!
Раздача ведётся путём добавления новых выпусков; при каждом добавлении создаётся новый торрент. Чтобы начать докачку нового выпуска, пользователям необходимо сделать следующее:
(1) остановить скачивание,
(2) удалить старый торрент у себя из клиента (старые серии удалять не надо),
(3) скачать новый торрент и запустить его у себя в клиенте вместо старого, при этом указать клиенту путь в старую папку куда и должно происходить скачивание новых выпусков. Ваш клиент при этом должен произвести хеширование (проверку) старой папки (если не производит сам — помогите ему сделать это). В результате он будет докачивать только те выпуски, которых у Вас ещё нет. Старые выпуски при этом не удаляются, а продолжают раздаваться!
Eсли Вы уже удалили старые выпуски, то предотвратить их повторную закачку можно, сняв галочки в соответствующих местах при запуске нового торрента. По возможности, желательно не удалять старые выпуски как можно дольше, чтобы релизёр не только продолжал раздавать старые выпуски, но и смог сконцентрироваться на новых.

Ссылка на предыдущие и альтернативные раздачи:
6ой сезон в 1080р
7ой сезон в 1080р
8ой сезон в 720р
8ой сезон в 1080р

Качество: WEB-DL
Формат: MKV

Видео 720р: AVC, 1280x720, 23,976 fps, ~4000 kbps
Видео 1080р: AVC, 1920x1080, 23,976 fps, ~5100 kbps

Аудио 1: AC-3, 48 kHz, 6 channels, 384 kbps
Аудио 2: AAC, 48,0 kHz, 2 channels, LC

Субтитры: русские и английские

От Anon2Anon русские к 1-3 серии
От Anon2Anon английские к 1-3 серии
От The Doctor Team русские к 1-3 серии

Подробные технические данныеА это ктото вообще читает? Не, если реально комуто надо, я заполню.


Скриншотыкому они нужны?


Внимание! 14.04.2019 раздача создана!

720p

Hash: 986A86392FFCDB49D5397D4342644ADB005F04B3
Size: 2.09 GB
файл — RGhost


1080p

Hash: 4E4EC4F4BFFBF0E52E934843C8A4C7E3CD203232
Size: 2.60 GB
файл — RGhost

47 комментариев

Ура! Сегодня обязательно начну смотреть! Спасибо!!! ^_^
— Увааааа…
403 — вам запрещено это действие, этот файл приватный и ваш ключ неправильный

— Серии не доступныыы…
а так?
— Урааа!!! Работает!!! Файлик скачался с новыми и чудесными сериями в огромном разрешении!!! УИиии!!!
Дикси быстрее меня посмотрит серии))
— Даааааааа!!! Хотя я их смотрю в двух вариантах, веб-версия в 254мб для флешки… и вот эта с субтитрами на английском и в большом размере и качестве! А потом пересматриваю… и снова…
Ого! Ты еще наверное и марафон серий проводишь каждый год!
А в этом году я решил изменить традицию просмотра залпом сериала и под легкий сидр) в этом году никакого сидра и одноразового просмотра!)) Буду идти в ногу, с выходом новых серий! Как никак, финальный сезон…
— Каждые полгода, все серии подряд. А то и каждые три месяца! Потому что это уняня сериал и полный позитива.
Грех не согласиться!^_^
— ДААА!!!
— Файл скачался… но сами серии не качает… Странно…
Да ладно!
А кто тогда сейчас с меня вовсю качает?
Впрочем последние пару лет с торрентами такая фигня, что они могут пару часов «ничего не делать», прежде чем внезапно начать скачиваться
— ОО!!! После добавления из предыдущего поста списка трэккеров — пошло!!! Ураааа. А до этого висело пустое совсем…
живая, значит, кисточка. и даже отвечает. но не по поводу большой раздачи и не мне.
Извини, специально ту ветку держу непрочитанной, чтобы напоминала горящей цыферкой о невыполненном пока обещании…
Пост божественно оформлен

А 18 трекеров из 23 мёртвые
— Треккеры лучше взять из предыдущего поста с 8мым сезоном, они работают более менее…
Знаешь где взять живые? Так поделись.
это трекеры с торрент раздачи на йейпониз.

А ещё лучше напиши об этом отдельный пост, ибо вопрос где взять актуальные трекеры наверняка возникает не только у меня.
И заодно напиши простым языком как зная хэш раздачи скачать её через магнет тем же мюторрентом.

А я, пользуясь правами, выданными мне кучкой поехавших понилюбов ©, добавлю эту тему в описание блога, чтоб не утонула. Идёт?
Йей, спасибо :3
  • DNS
  • +1
Огромное спасибо!
Так действительно удобнее, поскольку я качаю и в 1080 и в 720.
Подробные технические данные
Попрошу добавить, правила есть правила. Я бы, к примеру, посмотрел!
Хорошо, вечером добавлю
Хоть кто-то читает
Да тот же сырой айтюнс, что и всегда. Ну, в 1080пе по крайней мере. Там все эти годы ничего не меняется особо )
1
Общее
Уникальный идентификатор                 : 178909060351232357636281548328759589530 (0x8698A1B4D08AFA6B8743A75EEC61FA9A)
Полное имя                               : F:\MLP\1080p\My Little Pony - Friendship is Magic - S09 1080p\MLP-FiM S09E01 The Beginning of the End - Part 1 1080p.mkv
Формат                                   : Matroska
Версия формата                           : Version 4
Размер файла                             : 888 Мбайт
Продолжительность                        : 22 м. 5 с.
Общий поток                              : 5624 Кбит/сек
Название фильма                          : S09E01 : The Beginning of the End - Part 1
Дата кодирования                         : UTC 2019-04-10 21:13:28
Программа кодирования                    : mkvmerge v32.0.0 ('Astral Progressions') 64-bit
Библиотека кодирования                   : libebml v1.3.7 + libmatroska v1.5.0

Видео
Идентификатор                            : 1
Формат                                   : AVC
Формат/Информация                        : Advanced Video Codec
Профиль формата                          : [email protected]
Настройки формата                        : CABAC / 4 Ref Frames
Параметр CABAC формата                   : Да
Параметр RefFrames формата               : 4 кадра
Идентификатор кодека                     : V_MPEG4/ISO/AVC
Продолжительность                        : 22 м. 4 с.
Битрейт                                  : 5080 Кбит/сек
Ширина                                   : 1920 пикселей
Высота                                   : 1080 пикселей
Соотношение сторон                       : 16:9
Режим частоты кадров                     : Постоянный
Частота кадров                           : 23,976 (24000/1001) кадра/сек
Цветовое пространство                    : YUV
Субдискретизация насыщенности            : 4:2:0
Битовая глубина                          : 8 бит
Тип развёртки                            : Прогрессивная
Бит/(Пиксели*Кадры)                      : 0.102
Размер потока                            : 802 Мбайт (90%)
Заголовок                                : S09E01 : The Beginning of the End - Part 1
Язык                                     : English
Default                                  : Да
Forced                                   : Нет
Цветовой диапазон                        : Limited
Основные цвета                           : BT.709
Характеристики трансфера                 : BT.709
Коэффициенты матрицы                     : BT.709

Аудио #1
Идентификатор                            : 2
Формат                                   : AC-3
Формат/Информация                        : Audio Coding 3
Коммерческое название                    : Dolby Digital
Идентификатор кодека                     : A_AC3
Продолжительность                        : 22 м. 4 с.
Вид битрейта                             : Постоянный
Битрейт                                  : 384 Кбит/сек
Каналы                                   : 6 каналов
Channel layout                           : L R C LFE Ls Rs
Частота                                  : 48,0 КГц
Частота кадров                           : 31,250 кадров/сек (1536 SPF)
Битовая глубина                          : 16 бит
Метод сжатия                             : С потерями
Размер потока                            : 60,7 Мбайт (7%)
Заголовок                                : [ENG] AC3 5.1
Язык                                     : English
ServiceKind/String                       : Complete Main
Default                                  : Да
Forced                                   : Нет

Аудио #2
Идентификатор                            : 3
Формат                                   : AAC LC
Формат/Информация                        : Advanced Audio Codec Low Complexity
Идентификатор кодека                     : A_AAC-2
Продолжительность                        : 22 м. 5 с.
Битрейт                                  : 157 Кбит/сек
Каналы                                   : 2 канала
Channel layout                           : L R
Частота                                  : 48,0 КГц
Частота кадров                           : 46,875 кадров/сек (1024 SPF)
Метод сжатия                             : С потерями
Размер потока                            : 24,8 Мбайт (3%)
Заголовок                                : [ENG] AAC 2.0
Язык                                     : English
Default                                  : Нет
Forced                                   : Нет

2
Общее
Уникальный идентификатор                 : 31488014411793798870246476164739209803 (0x17B05EF8D70A2870503DBCCA9A799A4B)
Полное имя                               : F:\MLP\1080p\My Little Pony - Friendship is Magic - S09 1080p\MLP-FiM S09E02 The Beginning of the End - Part 2 1080p.mkv
Формат                                   : Matroska
Версия формата                           : Version 4
Размер файла                             : 886 Мбайт
Продолжительность                        : 22 м. 5 с.
Общий поток                              : 5612 Кбит/сек
Название фильма                          : S09E02 : The Beginning of the End - Part 2
Дата кодирования                         : UTC 2019-04-10 21:15:24
Программа кодирования                    : mkvmerge v32.0.0 ('Astral Progressions') 64-bit
Библиотека кодирования                   : libebml v1.3.7 + libmatroska v1.5.0

Видео
Идентификатор                            : 1
Формат                                   : AVC
Формат/Информация                        : Advanced Video Codec
Профиль формата                          : [email protected]
Настройки формата                        : CABAC / 4 Ref Frames
Параметр CABAC формата                   : Да
Параметр RefFrames формата               : 4 кадра
Идентификатор кодека                     : V_MPEG4/ISO/AVC
Продолжительность                        : 22 м. 4 с.
Битрейт                                  : 5069 Кбит/сек
Ширина                                   : 1920 пикселей
Высота                                   : 1080 пикселей
Соотношение сторон                       : 16:9
Режим частоты кадров                     : Постоянный
Частота кадров                           : 23,976 (24000/1001) кадра/сек
Цветовое пространство                    : YUV
Субдискретизация насыщенности            : 4:2:0
Битовая глубина                          : 8 бит
Тип развёртки                            : Прогрессивная
Бит/(Пиксели*Кадры)                      : 0.102
Размер потока                            : 801 Мбайт (90%)
Заголовок                                : S09E02 : The Beginning of the End - Part 2
Язык                                     : English
Default                                  : Да
Forced                                   : Нет
Цветовой диапазон                        : Limited
Основные цвета                           : BT.709
Характеристики трансфера                 : BT.709
Коэффициенты матрицы                     : BT.709

Аудио #1
Идентификатор                            : 2
Формат                                   : AC-3
Формат/Информация                        : Audio Coding 3
Коммерческое название                    : Dolby Digital
Идентификатор кодека                     : A_AC3
Продолжительность                        : 22 м. 4 с.
Вид битрейта                             : Постоянный
Битрейт                                  : 384 Кбит/сек
Каналы                                   : 6 каналов
Channel layout                           : L R C LFE Ls Rs
Частота                                  : 48,0 КГц
Частота кадров                           : 31,250 кадров/сек (1536 SPF)
Битовая глубина                          : 16 бит
Метод сжатия                             : С потерями
Размер потока                            : 60,7 Мбайт (7%)
Заголовок                                : [ENG] AC3 5.1
Язык                                     : English
ServiceKind/String                       : Complete Main
Default                                  : Да
Forced                                   : Нет

Аудио #2
Идентификатор                            : 3
Формат                                   : AAC LC
Формат/Информация                        : Advanced Audio Codec Low Complexity
Идентификатор кодека                     : A_AAC-2
Продолжительность                        : 22 м. 5 с.
Битрейт                                  : 157 Кбит/сек
Каналы                                   : 2 канала
Channel layout                           : L R
Частота                                  : 48,0 КГц
Частота кадров                           : 46,875 кадров/сек (1024 SPF)
Метод сжатия                             : С потерями
Размер потока                            : 24,9 Мбайт (3%)
Заголовок                                : [ENG] AAC 2.0
Язык                                     : English
Default                                  : Нет
Forced                                   : Нет

3
Общее
Уникальный идентификатор                 : 234303178782673926164932511611855477016 (0xB045269B5EDDC681D7409848C1629918)
Полное имя                               : F:\MLP\1080p\My Little Pony - Friendship is Magic - S09 1080p\MLP-FiM S09E03 Uprooted 1080p.mkv
Формат                                   : Matroska
Версия формата                           : Version 4
Размер файла                             : 891 Мбайт
Продолжительность                        : 22 м. 5 с.
Общий поток                              : 5639 Кбит/сек
Название фильма                          : S09E03 : Uprooted
Дата кодирования                         : UTC 2019-04-14 20:17:32
Программа кодирования                    : mkvmerge v33.0.0 ('A Little Bit of Madness') 64-bit
Библиотека кодирования                   : libebml v1.3.7 + libmatroska v1.5.0

Видео
Идентификатор                            : 1
Формат                                   : AVC
Формат/Информация                        : Advanced Video Codec
Профиль формата                          : [email protected]
Настройки формата                        : CABAC / 4 Ref Frames
Параметр CABAC формата                   : Да
Параметр RefFrames формата               : 4 кадра
Идентификатор кодека                     : V_MPEG4/ISO/AVC
Продолжительность                        : 22 м. 4 с.
Битрейт                                  : 5095 Кбит/сек
Ширина                                   : 1920 пикселей
Высота                                   : 1080 пикселей
Соотношение сторон                       : 16:9
Режим частоты кадров                     : Постоянный
Частота кадров                           : 23,976 (24000/1001) кадра/сек
Цветовое пространство                    : YUV
Субдискретизация насыщенности            : 4:2:0
Битовая глубина                          : 8 бит
Тип развёртки                            : Прогрессивная
Бит/(Пиксели*Кадры)                      : 0.102
Размер потока                            : 805 Мбайт (90%)
Заголовок                                : S09E03 : Uprooted
Язык                                     : English
Default                                  : Да
Forced                                   : Нет
Цветовой диапазон                        : Limited
Основные цвета                           : BT.709
Характеристики трансфера                 : BT.709
Коэффициенты матрицы                     : BT.709

Аудио #1
Идентификатор                            : 2
Формат                                   : AC-3
Формат/Информация                        : Audio Coding 3
Коммерческое название                    : Dolby Digital
Идентификатор кодека                     : A_AC3
Продолжительность                        : 22 м. 4 с.
Вид битрейта                             : Постоянный
Битрейт                                  : 384 Кбит/сек
Каналы                                   : 6 каналов
Channel layout                           : L R C LFE Ls Rs
Частота                                  : 48,0 КГц
Частота кадров                           : 31,250 кадров/сек (1536 SPF)
Битовая глубина                          : 16 бит
Метод сжатия                             : С потерями
Размер потока                            : 60,7 Мбайт (7%)
Заголовок                                : [ENG] AC3 5.1
Язык                                     : English
ServiceKind/String                       : Complete Main
Default                                  : Да
Forced                                   : Нет

Аудио #2
Идентификатор                            : 3
Формат                                   : AAC LC
Формат/Информация                        : Advanced Audio Codec Low Complexity
Идентификатор кодека                     : A_AAC-2
Продолжительность                        : 22 м. 5 с.
Битрейт                                  : 158 Кбит/сек
Каналы                                   : 2 канала
Channel layout                           : L R
Частота                                  : 48,0 КГц
Частота кадров                           : 46,875 кадров/сек (1024 SPF)
Метод сжатия                             : С потерями
Размер потока                            : 25,0 Мбайт (3%)
Заголовок                                : [ENG] AAC 2.0
Язык                                     : English
Default                                  : Нет
Forced                                   : Нет
Именно так
Ну я как обычно, поддержку раздачу несколько лет
Раздавать буду 1080р в 24/7 режиме, так что проблем со скачкой надеюсь не будет
Ура! Дружбомагия навчегда! ^_^
Навсегда*))
А можно еще сабы от KZL вкинуть?
Бро, без обид, но чем они могут сравниться с переводами от анонов и дока?
Тем, что они есть )
А у меня (по крайней мере раньше) была традиция выкладывать все доступные варианты русскоязычных сабов.
Как хорошо, что в трекере можно выбирать, что качать, а что нет)
Прост надо будет уделить этому время…
Можно, пару дней назад на глаза попался ваш пост с сабами. Была мысль написать на эту тему — но время было заполночь, и потому отложилось.

Сабы можно откуда-то отдельно взять, или надо будет из мкв выдергивать?

Пробовал через два разных прокси.
Можно всё-таки на какой-то нормальный хостинг торрент-файлы заливать, прикреплять магниты, к которым не надо дописывать magnet:?xt=urn:btih: или хотя бы на рутрэкер в 1080 выложить?
Пожалуйста, блин, препожалуйста? Такие клёвые раздачи, экономящие место отсутствием дубляжа, и каждый раз приходится крабьи ритуальные танцы вокруг них устраивать.
Эээээ… Лол
Действительно заблокирован. Просто у меня ещё со времён блокировки табуна настроено так, чтоб можно было тем же рутрекером пользоваться. Кстати, рутрекер года два если не больше как заблокирован, как ты с него качать собираешься?

Так что объявляется поиск нормального хостинга, который позволяет отслеживать количество скачиваний. Да, мне нужно видеть что например вариант 720 нужен 2...3 пользователям.

Насчёт магнитов — если кто-то запилит пост с нормальным описанием что это и как им пользоваться.

Насчёт 1080 на рутрекере — пишите их админам и модерам и спрашивайте их. Почему они запрещают там выкладывать.

З.ы. мы всегда открыты к конструктивному диалогу и если у кого-то есть какие-то полезные замечания и предложения, всегда готовы их выслушать )
Так что можно было и раньше написать, мы не кусаемся )
Кстати, рутрекер года два если не больше как заблокирован, как ты с него качать собираешься?

На рутрэкер с этих прокси, как ни странно, пущает.
С хостингом не помогу — меня дропбокс вполне устраивает, другими не пользуюсь, вопрос не изучал.

Насчёт магнитов — если кто-то запилит пост с нормальным описанием что это и как им пользоваться.

https://ru.wikipedia.org/wiki/Magnet-ссылка



Ты уже итак их вставляешь в виде хеша, но лично мой торрент-клиент в таком виде их не жрёт. Можешь пихать под тег «код» например.
Но да — популярно объясняющая статья тут не помешала бы, пожалуй. И мне в том числе.

Насчёт 1080 на рутрекере — пишите их админам и модерам и спрашивайте их. Почему они запрещают там выкладывать.

720 разрешают, а 1080 — ни-ни?
Впрочем, помнится, хотел я им концертик бутлеговый в самопальном двд выложить. Сказали «тут апконверт аудио — переделывай». Прошло пять-десять лет; концерта этого у них на трэкере нету до сих пор. Хозяин — барин.

Так что можно было и раньше написать, мы не кусаемся )

Я уже раньше писал. Я просто раз в год с удивлением об этом вспоминаю — прямо как коммунальные службы о весне.

ВНЕЗАПНО.
Действительно, есть такая кнопка.

720 разрешают, а 1080 — ни-ни?

Ага. И если ты обратил внимание — то мне предоставлена возможность размещать там 720 с субтитрами и БЕЗ ракосельской или какой ещё озвучки. В нарушение их Правил.

Сказали «тут апконверт аудио — переделывай».

Да, там очень строго с соблюдением Правил, это вам не ЯРОК. Причём сами модеры порой говорят что с какимто пунктом они не согласны, но изменить его не полномочны, поэтому вынуждены соблюдать.

И да, далеко не всегда там разжёвывают что именно надо переделать.
Например там долго стоял запрет на использование мквмердже пятой версии, и настоятельная рекомендация использовать четвёртую. И одновременно совет использовать новые версии программ.
Вахт-трекер.ру )
Ну в какойто мере да…
Нусссс

Что не понравилось: 1.Отставка — Это как бы не реально с точки зрения логики, правильней было бы назвать отпуском но сериал говорит нам что он болен последним сезоном и это печально.
2. Ресанье Сомбры — Это совсем не понравилось да и как побеждали его тоже.
3. Вся вторая серия.

Что понравилось — Как восстановили дерево, единственное на что у них хватило завладеть вниманием и то можно смешных моментов там ну фана побольше.

Начало такое себе. Жду дальше но ситуацию могут исправить только Трикси, Старлайт и Мод Пай.


На этом все. Спасибо.
— Спойлерыыы… спойлерыыыыы…
Да… некоторые не посмотрели еще…
Спойлеры так спойлеры…
— YAY!!!
Картинки свои можешь себе вставить, а не в коменты портить кто оценил начало сезона и серий. Убожество тупое иза которых на табуне осталось меньше 40 человек в день.
НЕ ИЗМЕНЯЙ КОМЕНТЫ ДРУГИХ ЛЮДЕЙ — ДАУН ТЫ ТУПОЙ, СЕБЕ В ЖОПУ ЭТОТ САМОТЫК ЗАСУНЬ.
Из-за таких людей как он, как раз все не стоит на месте и люди не покидают массово сайт из конкретного человека. А вот ты, мог бы быть и повежливее. Очень некрасиво такие вещи говорить человеку, которого ты не знаешь.
— На будущее… Есть те, кто смотрят серии исключительно в шикарном качестве на весь монитор, а не на стримах, веб-версиях и без субтитров. И вот эти самые «те» ждут их и потому не в курсе сюжета и возможно даже не хотят быть в курсе, пока серия не будет доступна и на винте. Так что — если так хочется поделиться своим мнением, добро пожаловать в темы обсуждения серий, а не там, где благодаря самоотверженному труду кисточкового, серии вообще появляются в доступе, с субтитрами и в замечательном, достойном коллекции, качестве.
А то в следующий раз изображённое на картинке застрянет в чьём-то крупе. Окей?
Напомню что для таких как ты существует отдельный блог, Обсуждения новых серий, где как раз и обсуждают подобное без всяких спойлеров и криков «а мы ещё не смотрели!»
Так что рекомендую в следующий раз обсуждать конкретные серии именно там

з.ы. Ну и в принципе ты мог бы написать всё тоже самое, только более спокойным языком, не пытаясь тут чтото разжечь. Например предложить свой вариант редактирования твоего спойлера, который бы всех устроил. А так…
Только зарегистрированные и авторизованные пользователи могут оставлять комментарии.