+665.96
голосов: 47
7636.66
Сила

Chaotic999

C Пятницей 13 вас, дорогие друзья!



Такая дата случается далеко не в каждый месяц и даже не в каждом году бывает!
Давайте оторвёмся в эту Пятницу 13 по полной!
Не будем терять повода, чтоб хорошенько повеселиться!

И не забудьте про страшилки для своих друзей, с которыми будете сегодня отвисать после работы или учёбы! ;)

Приятно всем отдохнуть, дорогие друзья!

Вопрос о текстопечатание и иже с ним. =)

Тут такое дело, дорогие друзья.
У меня завалялось целых два недописанных фанфика и один перевод, плюс, сейчас на носу текстовая ролевуха интернетная.
Хочу посоветоваться по поводу девайсов и ПО.

Собственно говоря, меня интересует:
1. нормальная проверенная программуля для распознания голосового набора. (под виндозу ХРюшу).
Я сегодня пол дня гуглил — повсюду хрен поймёшь какие отзывы.

2. Это уже как получится: хороший микрофончик под это дело. (какой брать?) Профи для оперного вокала просьба не советовать! =)))

Вопрос по игре "Sniper 3D"

+20
в блоге Игры
Доброго времени суток ребята!
Тут такой вопрос по игрульке для Андроида «Снайпер 3Д»
Стоит ли юзать улучшения для первого оружия, после миссии с террористом для прохождения следующей (когда коп журналюге чемоданчик передаёт) или всё же попытаться дальше её пройти без покупки апгрейтов?

(перейти на премиум — не предлагайте, ибо я жлоб и мне хорошо =) )

Поздравляю всех с 14 июня - МЕЖДУНАРОДНЫМ ДНЁМ БЛОГЕРА!



Дорогие табунчане!
Поздравляю всех вас с этим замечательным праздником!
Именно блогосфера объединяет самых разных людей из самых разных уголков мира!
Именно здесь мы можем общаться, узнавать друг-друга, делиться мнениями и полезной информацией, искать новых друзей, веселиться, грустить, решать житейские дела и мечтать о фантастических вещах, и ещё многое-многое другое!

От всей своей чёрной души поздравляю вас с этим праздником!
И по-больше вам вдохновения для ва
ших новых постов!

Дорогие табунчане! Вопрос!

Недавно купил себе новую звонилку.
Поясните плз. как в этом долбаном Андроиде отключить автозамену при наборе? Эта дрянь поганит моё фердипердозное косноязычие! )))
Задолбало!

… Заранее спасибо, дорогие друзья!

Фейк или не фейк?

Собственно, нашёл случайно на ютумбочке вот это:
MLP :Season 8 – Episode 1 Animatic HD

Интересно, это чей-то фейк или реальный слив аниматика 1й серии 8 сезона?
Если баян — сорре, но тут, на Табуне я такого вроде не видел, хоть и почти всё проглядываю.

… Но на всякий случай решил поделиться. 8)

Теги:

  • В избранное
  • 112

MLPTM для очень старых машин, но в достаточно приемлемом качестве.

Сабж собственно…

Видеофайл и файл с субтитрами в одном архиве.

нформация о видеофайле:
ЧитатьGeneral
Complete name: F:\MLP-TM.mpg
Format: MPEG-PS
File size: 876 MiB
Duration: 1h 39mn
Overall bit rate mode: Variable
Overall bit rate: 1 232 Kbps

Video
ID: 224 (0xE0)
Format: MPEG Video
Format version: Version 1
Format settings, BVOP: No
Format settings, Matrix: Default
Duration: 1h 39mn
Bit rate mode: Variable
Bit rate: 1 079 Kbps
Maximum bit rate: 7 000 Kbps
Width: 720 pixels
Height: 404 pixels
Display aspect ratio: 16:9
Frame rate: 24.000 fps
Color space: YUV
Bit depth: 8 bits
Scan type: Progressive
Compression mode: Lossy
Bits/(Pixel*Frame): 0.155
Stream size: 767 MiB (88%)

Audio
ID: 192 (0xC0)
Format: MPEG Audio
Format version: Version 1
Format profile: Layer 2
Duration: 1h 39mn
Bit rate mode: Constant
Bit rate: 128 Kbps
Channel(s): 2 channels
Sampling rate: 44.1 KHz
Compression mode: Lossy
Delay relative to video: -11ms
Stream size: 91.0 MiB (10%)


Русские субтитры присутствуют. Взяты в этой теме:
tabun.everypony.info/blog/translations/174782.html

Название архива: 999.rar
Размер архива по ссылке — 854 587 996 b
Формат архива RAR
Пароль к архиву: johnsheridan
Ссылка на сам архив с файлами:
ЙА СЦЫЛКО !!!dropmefiles.com/ON31o

АХТУНГ! Ссылка будет актуальна 6 дней, с момента создания этого псто!

Теги:

  • В избранное
  • 1